It is currently Thu Nov 27, 2014 2:41 am

All times are UTC + 12 hours [ DST ]




Post new topic Reply to topic  [ 1615 posts ]  Go to page Previous  1 ... 52, 53, 54, 55, 56, 57, 58 ... 65  Next
Author Message
PostPosted: Sun Apr 22, 2012 4:46 pm 
Offline
NZPWI Forum Life Member
NZPWI Forum Life Member
User avatar

Joined: Thu Jul 31, 2008 12:40 pm
Posts: 2517
Location: In the NZPWI basement eating all the bandwidth.
http://www.youtube.com/watch?v=bxKVpUjfW0U

Over 6 hours of classic All Japan Triple Crown matches. Most Awesome

http://www.youtube.com/watch?v=a6vP7ud8 ... plpp_video

NJPW SUPER J CUP 1994

_________________
12.51pm Feb 22 2011


Teh 4umms R dEAdz!!!.Teh 4umms R dEAdz!!!.Teh 4umms R dEAdz!!!.
Long live the rest of the InterWorldWideWebKimDotComs.


Top
 Profile  
 
PostPosted: Tue Apr 24, 2012 4:43 am 
Offline
NZPWI Forum Life Member
NZPWI Forum Life Member
User avatar

Joined: Mon Sep 07, 2009 11:44 pm
Posts: 5224
Location: Some shithole up North in the United Kingdom
The new EDGE dvd is GREAT!


Top
 Profile  
 
PostPosted: Tue Apr 24, 2012 9:00 pm 
Offline
NZPWI Forum Life Member
NZPWI Forum Life Member
User avatar

Joined: Thu Jul 31, 2008 12:40 pm
Posts: 2517
Location: In the NZPWI basement eating all the bandwidth.
http://www.youtube.com/watch?v=CJJwtnqwwMs
A battle worn Sandman lets his guard down and reveals himself to be a caring husband and father.
The rest ofthis better be as fucked up as this outtake

_________________
12.51pm Feb 22 2011


Teh 4umms R dEAdz!!!.Teh 4umms R dEAdz!!!.Teh 4umms R dEAdz!!!.
Long live the rest of the InterWorldWideWebKimDotComs.


Top
 Profile  
 
PostPosted: Sun Apr 29, 2012 8:18 pm 
Offline
NZPWI Forum Life Member
NZPWI Forum Life Member
User avatar

Joined: Thu Jul 31, 2008 12:40 pm
Posts: 2517
Location: In the NZPWI basement eating all the bandwidth.
Heros Of Wrestling 10/10/1999 ppv

http://www.youtube.com/playlist?list=PL ... ature=plcp


Long ranked the worst ever PPV in history...well, looks like Extreme Reunion will bump it from top of the shit pile.

_________________
12.51pm Feb 22 2011


Teh 4umms R dEAdz!!!.Teh 4umms R dEAdz!!!.Teh 4umms R dEAdz!!!.
Long live the rest of the InterWorldWideWebKimDotComs.


Top
 Profile  
 
PostPosted: Mon Apr 30, 2012 7:00 pm 
Offline
NZPWI Forum Life Member
NZPWI Forum Life Member
User avatar

Joined: Thu Jul 31, 2008 12:40 pm
Posts: 2517
Location: In the NZPWI basement eating all the bandwidth.
Fresh links
Image
WWE.Xtreme.Rules.2012.DSR.XviD-XWT.avi

Quote:
Filename : WWE.Xtreme.Rules.2012.DSR.XviD-XWT.avi
Air Date : April 29th 2012
Genre : Wrestling
Channel : Sky Box Office
Aspect Ratio : 16:9 (640x368)
Container : AVI
Video Codec : XviD
Audio Codec : MPEG-1 Audio Layer III (128kbs)
Video Bitrate : 1050kbps
Source : DSR
Play Time : 2 Hours 57 Mins
Release Size : 1.43 GiG


Code:
https://rapidshare.com/files/3482758078/ER.2012.Part1.part1.rar
https://rapidshare.com/files/857800346/ER.2012.Part1.part2.rar
https://rapidshare.com/files/2673942248/ER.2012.Part1.part3.rar
https://rapidshare.com/files/3912150664/ER.2012.Part1.part4.rar
https://rapidshare.com/files/3313599567/ER.2012Part1.part5.rar

https://rapidshare.com/files/37231754/ER.2012.Part2.part1.rar
https://rapidshare.com/files/1819254118/ER.2012.Part2.part2.rar
https://rapidshare.com/files/1709730070/ER.2012.Part2.part3.rar
https://rapidshare.com/files/104383950/ER.2012.Part2.part4.rar

_________________
12.51pm Feb 22 2011


Teh 4umms R dEAdz!!!.Teh 4umms R dEAdz!!!.Teh 4umms R dEAdz!!!.
Long live the rest of the InterWorldWideWebKimDotComs.


Top
 Profile  
 
PostPosted: Fri May 04, 2012 9:07 pm 
Offline
NZPWI Forum Life Member
NZPWI Forum Life Member
User avatar

Joined: Thu Jul 31, 2008 12:40 pm
Posts: 2517
Location: In the NZPWI basement eating all the bandwidth.
Doug Gilbert: No Apologies Needed
Image
Quote:
Video
ID : 0
Format : MPEG-4 Visual
Format profile : Advanced Simple@L5
Format settings, BVOP : 1
Format settings, QPel : No
Format settings, GMC : No warppoints
Format settings, Matrix : Custom
Codec ID : XVID
Codec ID/Hint : XviD
Duration : 2h 52mn
Bit rate : 442 Kbps
Width : 608 pixels
Height : 352 pixels
Display aspect ratio : 16:9
Frame rate : 29.970 fps
Color space : YUV
Chroma subsampling : 4:2:0
Bit depth : 8 bits
Scan type : Progressive
Compression mode : Lossy
Bits/(Pixel*Frame) : 0.069
Stream size : 546 MiB (78%)
Writing library : XviD 1.2.1 (UTC 2008-12-04)

Audio
ID : 1
Format : MPEG Audio
Format version : Version 1
Format profile : Layer 3
Mode : Joint stereo
Mode extension : MS Stereo
Codec ID : 55
Codec ID/Hint : MP3
Duration : 2h 52mn
Bit rate mode : Variable
Bit rate : 109 Kbps
Nominal bit rate : 128 Kbps
Channel(s) : 2 channels
Sampling rate : 48.0 KHz
Compression mode : Lossy
Stream size : 135 MiB (19%)


Code:
http://tinyurl.com/ctooswh

_________________
12.51pm Feb 22 2011


Teh 4umms R dEAdz!!!.Teh 4umms R dEAdz!!!.Teh 4umms R dEAdz!!!.
Long live the rest of the InterWorldWideWebKimDotComs.


Top
 Profile  
 
PostPosted: Fri May 04, 2012 9:32 pm 
Offline
NZPWI Forum Life Member
NZPWI Forum Life Member
User avatar

Joined: Thu Jul 31, 2008 12:40 pm
Posts: 2517
Location: In the NZPWI basement eating all the bandwidth.
RF VIDEO: TAJIRI W/SUBTITLES
Image
Quote:
RF Video is very happy to announce that we conducted a new shoot interview with the Japense Buzzsaw Yoshihiro Tajiri and it will go down as one of those rare gems. We did the interview right after Tajiri teamed up with Mikey Whipwreck in our private locker room with him as he was still in full gear, sweating and dripping with green mist!!!

It took RF Video over 10 years to get Tajiri to sit down with us but we accomplished our mission. Yes, Tajiri can speak english and not only do we give you a interview on his entire wrestling career but this shoot will feature bonus matches with him as well!!!!

Tajiri talks about how he broke into the business and soon traveled to Mexico to learn his craft. You will hear about his start in Japan and his relationship with all of the indy promoters out there. Tajiri takes us back to what it was like to work as a green horn with Terry Funk the night he faced Cactus Jack in the infamous 1995 IWA Death Match tournament. He talks about working in CMLL and all over the world before he got his start in ECW.

Tajiri talks about what it was like in ECW and how he got to work with Super Crazy. We talk all about that feud and why he thought Super Crazy was better than him and how he made himself better than Super Crazy. We talk about his matches with Little Guido, Mike Awesome, Tommy Dreamer, Taz and everyone else that he worked with in the ECW locker room. What did he think of Paul Heyman and how did Paul react after his first match in the company.

Before heading over to the WWE he worked for CZW and a few other Indy companies and we talk about those matches as well with Low Ki and others.

How did Tajiri end up into the WWE and who brought him in. You will hear a hilarious story on how he tried to hide from Vince McMahon on his first night in the company!!!! This is a hilarious story…as you will see the funny side of Tajiri during this shoot.

We talk about his alliance with Steven Regal right off the bat when he was in the WWE and of course he talks about working with Rhino as well. Tajiri talks about his team and feud with Eddy Guerrero and what it was like to face Triple H. Tajiri worked with Chris Kanyon, Jamie Knoble, Xpac, Rey Mysterio Jr and almost everyone in the WWE locker room. He has many stories on what it was like to work for the WWE before he quit and headed back to Japan. You will hear why he wanted to quit the WWE for a long time too.

Tajiri talks about working for New Japan and how he got the job as head booker for SMASH promotion in Japan. We talk to him about the Great Muta gimmick and what it was like working with all the new talent in Japan. The interview is a must if you love Tajiri as you will see a whole new side of the Japanese Buzzsaw!


Quote:
Format : MPEG-4
Format profile : Base Media
Codec ID : isom
File size : 879 MiB
Duration : 1h 39mn
Overall bit rate : 1 233 Kbps
Writing application : Lavf53.4.0

Video
ID : 1
Format : AVC
Format/Info : Advanced Video Codec
Format profile : Baseline@L1.3
Format settings, CABAC : No
Format settings, ReFrames : 3 frames
Format settings, GOP : M=1, N=25
Codec ID : avc1
Codec ID/Info : Advanced Video Coding
Duration : 1h 39mn
Bit rate : 1 100 Kbps
Width : 640 pixels
Height : 370 pixels
Display aspect ratio : 16:9
Frame rate mode : Constant
Frame rate : 29.970 fps
Color space : YUV
Chroma subsampling : 4:2:0
Bit depth : 8 bits
Scan type : Progressive
Bits/(Pixel*Frame) : 0.155
Stream size : 784 MiB (89%)
Writing library : x264 core 116


Audio
ID : 2
Format : AAC
Format/Info : Advanced Audio Codec
Format profile : LC
Codec ID : 40
Duration : 1h 39mn
Bit rate mode : Constant
Bit rate : 128 Kbps
Channel(s) : 2 channels
Channel positions : Front: L R
Sampling rate : 44.1 KHz
Compression mode : Lossy
Stream size : 91.2 MiB (10%)


Code:
http://tinyurl.com/7kgvvhc

_________________
12.51pm Feb 22 2011


Teh 4umms R dEAdz!!!.Teh 4umms R dEAdz!!!.Teh 4umms R dEAdz!!!.
Long live the rest of the InterWorldWideWebKimDotComs.


Top
 Profile  
 
PostPosted: Fri May 04, 2012 9:48 pm 
Offline
NZPWI Forum Life Member
NZPWI Forum Life Member
User avatar

Joined: Thu Jul 31, 2008 12:40 pm
Posts: 2517
Location: In the NZPWI basement eating all the bandwidth.
Kayfabe Commentaries: Guest Booker:Yesterday & Today w/ Kevin Sullivan and Gabe Sapolsky

Quote:
Format : AVI
Format/Info : Audio Video Interleave
Format profile : OpenDML
File size : 1.01 GiB
Duration : 1h 59mn
Overall bit rate : 1 212 Kbps
Writing application : Lavf52.39.1

Video
ID : 0
Format : xvid
Codec ID : xvid
Duration : 1h 59mn
Bit rate : 1 131 Kbps
Width : 640 pixels
Height : 480 pixels
Display aspect ratio : 4:3
Frame rate : 23.000 fps
Bits/(Pixel*Frame) : 0.160
Stream size : 966 MiB (93%)

Audio
ID : 1
Format : MPEG Audio
Format version : Version 1
Format profile : Layer 3
Mode : Joint stereo
Mode extension : MS Stereo
Codec ID : 55
Codec ID/Hint : MP3
Duration : 1h 59mn
Bit rate mode : Constant
Bit rate : 64.0 Kbps
Channel(s) : 2 channels
Sampling rate : 44.1 KHz
Compression mode : Lossy
Stream size : 54.7 MiB (5%


Image


Code:
http://tinyurl.com/835bbze

_________________
12.51pm Feb 22 2011


Teh 4umms R dEAdz!!!.Teh 4umms R dEAdz!!!.Teh 4umms R dEAdz!!!.
Long live the rest of the InterWorldWideWebKimDotComs.


Top
 Profile  
 
PostPosted: Mon May 14, 2012 3:23 pm 
Offline
NZPWI Forum Life Member
NZPWI Forum Life Member
User avatar

Joined: Thu Jul 31, 2008 12:40 pm
Posts: 2517
Location: In the NZPWI basement eating all the bandwidth.
Image

Quote:
Resolution: 320x240
Bitrate: 1011kbps
Container: MP4
Audio: 87kbps


"Final Battle"
THE FBI FT. LITTLE GUIDO & TONY MAMALUKE vs. THE BWO FT. STEVIE RICHARDS & BLUE MEANIE

"Wrestling Purists Dream Match"
AL SNOW W/HEAD vs. CW ANDERSON

"Chairs, Chairs, and more Chairs"
BALLS MAHONEY vs. AXL ROTTEN

Weapon's Match
GANGSTAS NEW JACK & MUSTAFA vs. ANGEL OF DA BALDIES & RUCKUS & JEEZ

"Champions Collide"
JERRY LYNN vs. DEVON STORM

"The Night The Line Was Erased"
SHANE DOUGLAS vs. 2 COLD SCORPIO w/BILL ALFONSO


Quote:
Code:
1 link
https://rapidshare.com/files/2071213959/Extreme.Reunion.2012-Tombstone6.mp4


or

https://rapidshare.com/files/3698472748/Extreme.Reunion.2012-Tombstone6.part1.rar

https://rapidshare.com/files/3957490715/Extreme.Reunion.2012-Tombstone6.part2.rar

_________________
12.51pm Feb 22 2011


Teh 4umms R dEAdz!!!.Teh 4umms R dEAdz!!!.Teh 4umms R dEAdz!!!.
Long live the rest of the InterWorldWideWebKimDotComs.


Last edited by 220 on Mon May 14, 2012 7:56 pm, edited 2 times in total.

Top
 Profile  
 
PostPosted: Mon May 14, 2012 3:36 pm 
Offline
NZPWI Forum Life Member
NZPWI Forum Life Member

Joined: Sat Jul 20, 2002 12:19 am
Posts: 7441
320 x 240?

Oh Shane :lol:


Top
 Profile  
 
PostPosted: Mon May 14, 2012 7:09 pm 
Offline
NZPWI Forum Life Member
NZPWI Forum Life Member
User avatar

Joined: Thu Jul 31, 2008 12:40 pm
Posts: 2517
Location: In the NZPWI basement eating all the bandwidth.
TNA.Sacrifice.2012.HDTV.x264-RUDOS
Image

Quote:
[EVENT]: TNA.Sacrifice.2012.HDTV.x264-RUDOS
[RELEASED]: 05.14.2012
[AIRED]: 05.13.2012
[SIZE]: 1.96 GB
[SOURCE]: HD PPV
[CONTAINER]: mp4
[RESOLUTION]: 704 x 400 (16:9) @ 29.970 FPS
[VIDEO]: x264 @ 1467 kbps
[AUDIO]: AAC @ 192 kbps
[LENGTH]: 168 Mins

TNA WORLD HEAVYWEIGHT CHAMPIONSHIP LADDER MATCH
Bobby Roode (c) vs. Rob Van Dam

Kurt Angle vs. AJ Styles

TNA WORLD TAG TEAM CHAMPIONSHIP MATCH
Samoa Joe and Magnus (c) vs. Daniels and Kazarian

Jeff Hardy vs. Mr. Anderson
Austin Aries vs. Bully Ray

TNA WOMEN'S KNOCKOUT CHAMPIONSHIP MATCH
Gail Kim (c) vs. Brooke Tessmacher

TNA TELEVISION CHAMPIONSHIP 2 ON 1 HANDICAP MATCH
Devon (c) vs. Robbie E and Robbie T





Code:
RS PREMIUM
https://rapidshare.com/files/1536863870/TNA.Sacrifice.2012.HDTV.x264-RUDOS.part1.rar
https://rapidshare.com/files/2380627427/TNA.Sacrifice.2012.HDTV.x264-RUDOS.part2.rar

_________________
12.51pm Feb 22 2011


Teh 4umms R dEAdz!!!.Teh 4umms R dEAdz!!!.Teh 4umms R dEAdz!!!.
Long live the rest of the InterWorldWideWebKimDotComs.


Top
 Profile  
 
PostPosted: Mon May 14, 2012 7:11 pm 
Offline
NZPWI Forum Life Member
NZPWI Forum Life Member
User avatar

Joined: Mon Sep 07, 2009 11:44 pm
Posts: 5224
Location: Some shithole up North in the United Kingdom
Any chance you can edit the A double back bump out and upload to youtube please?


Top
 Profile  
 
PostPosted: Mon May 14, 2012 7:14 pm 
Offline
NZPWI Forum Life Member
NZPWI Forum Life Member

Joined: Sat Jul 20, 2002 12:19 am
Posts: 7441
:lol: Jeez ask much?


Top
 Profile  
 
PostPosted: Mon May 14, 2012 7:15 pm 
Offline
NZPWI Forum Life Member
NZPWI Forum Life Member
User avatar

Joined: Thu Jul 31, 2008 12:40 pm
Posts: 2517
Location: In the NZPWI basement eating all the bandwidth.
Nothing stopping you from doing that yourself, is there?.

_________________
12.51pm Feb 22 2011


Teh 4umms R dEAdz!!!.Teh 4umms R dEAdz!!!.Teh 4umms R dEAdz!!!.
Long live the rest of the InterWorldWideWebKimDotComs.


Top
 Profile  
 
PostPosted: Mon May 14, 2012 7:18 pm 
Offline
NZPWI Forum Life Member
NZPWI Forum Life Member
User avatar

Joined: Mon Sep 07, 2009 11:44 pm
Posts: 5224
Location: Some shithole up North in the United Kingdom
I havent got it yet and my internet struggles to upload high amounts of data haha, All good with download but not upload hahaha


Top
 Profile  
 
PostPosted: Mon May 14, 2012 7:51 pm 
Offline
NZPWI Forum Life Member
NZPWI Forum Life Member
User avatar

Joined: Thu Jul 31, 2008 12:40 pm
Posts: 2517
Location: In the NZPWI basement eating all the bandwidth.
Even though I couldnt get my normal media converter/trimmer to work for Sacrifice, doesnt like to allow editing to be done on MP4 files for some daft reason.
I used another one I had but only in free trial form, thus water mark.
Heres the back bump of doom
http://www.youtube.com/watch?v=hlp79-6f ... e=youtu.be

_________________
12.51pm Feb 22 2011


Teh 4umms R dEAdz!!!.Teh 4umms R dEAdz!!!.Teh 4umms R dEAdz!!!.
Long live the rest of the InterWorldWideWebKimDotComs.


Top
 Profile  
 
PostPosted: Mon May 14, 2012 8:26 pm 
Offline
NZPWI Forum Life Member
NZPWI Forum Life Member
User avatar

Joined: Thu Jul 31, 2008 12:40 pm
Posts: 2517
Location: In the NZPWI basement eating all the bandwidth.
TNA.Sacrifice
Watch Online - Single Links


Putlocker[Flash-HD]



http://adf.ly/8V464

http://adf.ly/8V465


Sockshare[Flash-HD]




http://adf.ly/8V4B3

http://adf.ly/8V4B4


Movshare [Flash-HD]




http://adf.ly/8V3sl

http://adf.ly/8V3sm




NovaMov[Flash-HD]



http://adf.ly/8V3n3

http://adf.ly/8V3n4





VideoWeed [Flash-HD]



http://adf.ly/8V3j1

http://adf.ly/8V3j2




OvFile [Flash-HD]





http://adf.ly/8V3eA

http://adf.ly/8V3e9



180Upload [Flash-HD]



http://adf.ly/8V3ZF

http://adf.ly/8V3ZG

_________________
12.51pm Feb 22 2011


Teh 4umms R dEAdz!!!.Teh 4umms R dEAdz!!!.Teh 4umms R dEAdz!!!.
Long live the rest of the InterWorldWideWebKimDotComs.


Top
 Profile  
 
PostPosted: Mon May 14, 2012 9:10 pm 
Offline
NZPWI Forum Life Member
NZPWI Forum Life Member
User avatar

Joined: Thu Jul 31, 2008 12:40 pm
Posts: 2517
Location: In the NZPWI basement eating all the bandwidth.
RFVideo.Shoot.Balls.Mahoney.2009.DVDRip.x264-RUDOS

Quote:
[EVENT]: RFVideo.Shoot.Balls.Mahoney.2009.DVDRip.x264-RUDOS
[RELEASED]: 05.11.2012
[SIZE]: 1.74 GB
[SOURCE]: DVD
[CONTAINER]: mp4
[RESOLUTION]: 576x432 (4:3) @ 29.970 FPS
[VIDEO]: x264 @ 1446 kbps
[AUDIO]: AAC @ 192 kbps
[LENGTH]: 150 Mins


Code:
https://rapidshare.com/files/4071807360/RFVideo.Shoot.Balls.Mahoney.2009.DVDRip.x264-RUDOS.mp4

_________________
12.51pm Feb 22 2011


Teh 4umms R dEAdz!!!.Teh 4umms R dEAdz!!!.Teh 4umms R dEAdz!!!.
Long live the rest of the InterWorldWideWebKimDotComs.


Top
 Profile  
 
PostPosted: Mon May 14, 2012 9:15 pm 
Offline
NZPWI Forum Life Member
NZPWI Forum Life Member
User avatar

Joined: Thu Jul 31, 2008 12:40 pm
Posts: 2517
Location: In the NZPWI basement eating all the bandwidth.
KC.Timeline.History.of.WWE.1999.With.Sean.Morley.DVDRip.x264-RUDOS

Quote:
[EVENT]: KC.Timeline.History.of.WWE.1999.With.Sean.Morley.DVDRip.x264-RUDOS
[RELEASED]: 05.11.2012
[SIZE]: 870 MB
[SOURCE]: DVD
[CONTAINER]: mp4
[RESOLUTION]: 704x400 (16:9) @ 29.970 FPS
[VIDEO]: x264 @ 958 kbps
[AUDIO]: AAC @ 192 kbps
[LENGTH]: 103 Mins


Code:
https://rapidshare.com/files/1468253716/KC.Timeline.History.of.WWE.1999.With.Sean.Morley.DVDRip.x264-RUDOS.mp4

_________________
12.51pm Feb 22 2011


Teh 4umms R dEAdz!!!.Teh 4umms R dEAdz!!!.Teh 4umms R dEAdz!!!.
Long live the rest of the InterWorldWideWebKimDotComs.


Top
 Profile  
 
PostPosted: Mon May 14, 2012 9:23 pm 
Offline
NZPWI Forum Life Member
NZPWI Forum Life Member
User avatar

Joined: Thu Jul 31, 2008 12:40 pm
Posts: 2517
Location: In the NZPWI basement eating all the bandwidth.
Image

Quote:
Are you ready to get inside the squared circle and learn from one of WWE's hottest females of all time? Well get ready because RF Video teamed up with Playboy centerfold Maria Kanellis for her new DVD titled Sharing My Knowledge.

Sharing My Knowledge is going to be one a kind DVD that you will not want to miss, especially if your a girl and you want to get into the wrestling business. The DVD starts out with Maria in the ring with a group of up and coming female wrestlers such as Brittney Savage, Jessica Havok and Allysin Kay who are all aspiring to make it one day into the WWE. Maria starts out the DVD in the ring with the girls answering all sorts of questions that they ask her about her time in the WWE locker room.

Maria shares her knowledge with the girls on what they should do to make it into the WWE and most importantly how they need to land their job and stay in the WWE. She talks about taking bumps, locker room respect and etiquette. What it was like to work with some of the top names in the WWE locker room in the ring and most importantly shares her in ring experiences to teach these girls how they can become the next WWE female superstar.

The second part of the DVD has these girls actually wrestling each other in front of a live crowd. Three exciting women bouts first as Sassy Stephanie takes on Rain then in match two Alicia & Brittney Savage take on the duo of Jessica Havok and Allysin Kay. Afterward Jessica Havok challenges Rain for her WSU Spirit Championship!

Post match we take the camera backstage where cameras never should be allowed until now and Maria sits all of the girls down in a circle and critiques and gives advice about their matches. She tells them what they did right and most importantly what they might have done wrong to learn more.

This is a really amazing DVD from start to finish and it's even better that one of wrestling sexiest bomb shells Maria Kanellis is the host!!!


FORMAT:MKV
SIZE:498MB


Code:
https://rapidshare.com/files/2355962610/SMK_with_Maria.mkv

_________________
12.51pm Feb 22 2011


Teh 4umms R dEAdz!!!.Teh 4umms R dEAdz!!!.Teh 4umms R dEAdz!!!.
Long live the rest of the InterWorldWideWebKimDotComs.


Top
 Profile  
 
PostPosted: Mon May 14, 2012 9:31 pm 
Offline
NZPWI Forum Life Member
NZPWI Forum Life Member
User avatar

Joined: Thu Jul 31, 2008 12:40 pm
Posts: 2517
Location: In the NZPWI basement eating all the bandwidth.
Image
Quote:
Ever wanted to spend the evening with two former NWA World Heavyweight Champions, drinking a case of beer and talking about their thoughts on wrestling, memories, and just some great tales that only legends could tell? Highspotsdid andnow you can experience it yourself!

Harley Race and Terry Funk,drinking a case of beer with you along to enjoy everything they had to say.The more beer cans that were emptied, thebetter the stories got!It starts off with Terry Funk saying, "Youwanna know why Dusty Rhodes isn't here tonight?Because he's in New York with his head up Vince McMahon's ass!" and that was before one beer had even been opened!

Imagine where he goes from there! This is one special, intimate conversation with two of the greatest world champions of all time...up close and personal.

So pull up a chair and pop the top on a cold one... hit the play button and enjoy!


Quote:
Format : AVI
Format/Info : Audio Video Interleave
File size : 499 MiB
Duration : 1h 55mn
Overall bit rate : 603 Kbps
Writing application : Lavf52.39.1

Video
ID : 0
Format : xvid
Codec ID : xvid
Duration : 1h 55mn
Bit rate : 525 Kbps
Width : 320 pixels
Height : 240 pixels
Display aspect ratio : 4:3
Frame rate : 30.000 fps
Bits/(Pixel*Frame) : 0.228
Stream size : 435 MiB (87%)

Audio
ID : 1
Format : MPEG Audio
Format version : Version 1
Format profile : Layer 3
Mode : Joint stereo
Mode extension : MS Stereo
Codec ID : 55
Codec ID/Hint : MP3
Duration : 1h 55mn



Code:
https://rapidshare.com/files/3043226271/FullTalesFunkRace.avi

_________________
12.51pm Feb 22 2011


Teh 4umms R dEAdz!!!.Teh 4umms R dEAdz!!!.Teh 4umms R dEAdz!!!.
Long live the rest of the InterWorldWideWebKimDotComs.


Last edited by 220 on Mon May 14, 2012 11:13 pm, edited 2 times in total.

Top
 Profile  
 
PostPosted: Mon May 14, 2012 9:45 pm 
Offline
NZPWI Forum Life Member
NZPWI Forum Life Member
User avatar

Joined: Thu Jul 31, 2008 12:40 pm
Posts: 2517
Location: In the NZPWI basement eating all the bandwidth.
KC.Becoming.A.Horsemen.JJ.Dillion.DVDRip.x264-RUDOS

Quote:
[EVENT]: KC.Becoming.A.Horsemen.JJ.Dillion.DVDRip.x264-RUDOS
[RELEASED]: 04.17.2012
[SIZE]: 736 MB
[SOURCE]: DVD
[CONTAINER]: mp4
[RESOLUTION]: 704x400 (16:9) @ 29.970 FPS
[VIDEO]: x264 @ 787 kbps
[AUDIO]: AAC @ 192 kbps
[LENGTH]: 102 Mins


Code:
https://rapidshare.com/files/4286746664/KC.4HDillion.mp4

_________________
12.51pm Feb 22 2011


Teh 4umms R dEAdz!!!.Teh 4umms R dEAdz!!!.Teh 4umms R dEAdz!!!.
Long live the rest of the InterWorldWideWebKimDotComs.


Top
 Profile  
 
PostPosted: Mon May 14, 2012 10:55 pm 
Offline
NZPWI Forum Life Member
NZPWI Forum Life Member
User avatar

Joined: Mon Sep 07, 2009 11:44 pm
Posts: 5224
Location: Some shithole up North in the United Kingdom
Mucho Gracias 220. Ill be getting at least 2 of them.


Top
 Profile  
 
PostPosted: Tue May 15, 2012 6:35 pm 
Offline
NZPWI Forum Life Member
NZPWI Forum Life Member
User avatar

Joined: Thu Jul 31, 2008 12:40 pm
Posts: 2517
Location: In the NZPWI basement eating all the bandwidth.
ROH 2012 05 13 Border Wars iPPV x264 RUDOS

Image

Quote:
[EVENT]: ROH.2012.05.13.Border.Wars.iPPV.x264-RUDOS
[AIRED]: 05.12.2012
[RELEASED]: 05.15.2012
[SIZE]: 540 MB
[SOURCE]: iPPV
[CONTAINER]: mp4
[RESOLUTION]: 320 x 180 (16:9) @ 29.970 FPS
[VIDEO]: x264 @ 250 kbps
[AUDIO]: AAC @ 128 kbps
[LENGTH]: 208 Mins


RS
Code:
http://tinyurl.com/preview.php?num=cs5wffb

_________________
12.51pm Feb 22 2011


Teh 4umms R dEAdz!!!.Teh 4umms R dEAdz!!!.Teh 4umms R dEAdz!!!.
Long live the rest of the InterWorldWideWebKimDotComs.


Top
 Profile  
 
PostPosted: Tue May 15, 2012 6:39 pm 
Offline
NZPWI Forum Life Member
NZPWI Forum Life Member

Joined: Sat Jul 20, 2002 12:19 am
Posts: 7441
Haha love the 1999 photo of Storm. :lol:

Was Border Wars good?


Top
 Profile  
 
Display posts from previous:  Sort by  
Post new topic Reply to topic  [ 1615 posts ]  Go to page Previous  1 ... 52, 53, 54, 55, 56, 57, 58 ... 65  Next

All times are UTC + 12 hours [ DST ]


Who is online

Users browsing this forum: No registered users and 0 guests


You cannot post new topics in this forum
You cannot reply to topics in this forum
You cannot edit your posts in this forum
You cannot delete your posts in this forum

Search for:
Jump to:  
cron
Powered by phpBB® Forum Software © phpBB Group